Anna ( 2016 ) Hindi [1CD] Desi Pre DVDRip Download From Kickass

Download Anna ( 2016 ) Hindi [1CD] Desi Pre DVDRip, Watch Online Anna ( 2016 ) Hindi [1CD] Desi Pre DVDRip, Download Anna ( 2016 ) Hindi [1CD] Desi Pre DVDRip Movie, Download Anna ( 2016 ) Hindi [1CD] Desi Pre DVDRip From DL4TOTS.XYZ, Download Anna ( 2016 ) Hindi [1CD] Desi Pre DVDRip From Simpletorrent.xyz, Download Anna ( 2016 ) Hindi [1CD] Desi Pre DVDRip From Torrent, Anna ( 2016 ) Hindi [1CD] Desi Pre DVDRip Download From Kickass
Size 697 MB


907ab3b1f2132c8d7a4a6e13fb3e6673.md.jpg




                                                                        Torrent 1

                                                                        Torrent 2

                                                                        Torrent 3

                                                                        Torrent 4


Introduction of the Film :
Anna Fritz is a beautiful and famous actress. Suddenly her body is found in a hotel and the news of her death goes around the planet. The young, shy caretaker Pau works at the hospital where they carried the body of Anna Fritz. He and his friends decide to take pictures of the body of Anna Fritz. They decide they could make love to her and nobody would know. They are in front of Anna Fritz ... and can do with it what they want...

Torrent Description :
Format: Matroska
Format version: Version 2
File size: 697 MiB
Duration: 2h 11mn
Overall bit rate: 742 Kbps
Encoded date: UTC 2016-10-24 13:34:51
Writing application: mkvmerge v8.5.2 ('Crosses') 32bit
Writing library: libebml v1.3.3 + libmatroska v1.4.4

Video
ID: 1
Format: AVC
Format/Info: Advanced Video Codec
Format profile: [email protected]
Format settings, CABAC: Yes
Format settings, ReFrames: 4 frames
Codec ID: V_MPEG4/ISO/AVC
Duration: 2h 11mn
Bit rate: 580 Kbps
Width: 720 pixels
Height: 304 pixels
Display aspect ratio: 2.35:1
Frame rate mode: Constant
Frame rate: 29.970 fps
Color space: YUV
Chroma subsampling: 4:2:0
Bit depth: 8 bits
Scan type: Progressive
Bits/(Pixel*Frame): 0.088
Stream size: 533 MiB (76%)
Writing library: x264 core 148 r2638 7599210

Audio
ID: 2
Format: AC-3
Format/Info: Audio Coding 3
Mode extension: CM (complete main)
Format settings, Endianness: Big
Codec ID: A_AC3
Duration: 2h 11mn
Bit rate mode: Constant
Bit rate: 160 Kbps
Channel(s) : 2 channels
Channel positions: Front: L R
Sampling rate: 48.0 KHz
Compression mode: Lossy
Stream size: 150 MiB (22%)
Language: Hindi
Default: Yes
Forced: No
Source:WEBDL

Share

& Comment

 

Copyright © 2015 DL4TOTS™ is a registered trademark.

Designed by Templateism. Hosted on Blogger Platform.