Arrival 2016 HDCAM Download From Kickass

Download Arrival 2016 HDCAM, Watch Online Arrival 2016 HDCAM, Download Arrival 2016 HDCAM Movie, Download Arrival 2016 HDCAM From Simpletorrent.xyz, Download Arrival 2016 HDCAM From DL4TOTS.XYZ, Download Arrival 2016 HDCAM From Torrent, Arrival 2016 HDCAM Download From Kickass
Size 2.15 GB






                                                                       Torrent 1

                                                                       Torrent 2

                                                                       Torrent 3

                                                                       Torrent 4

Introduction Of The Movie :-



Taking place after alien crafts land around the world, an expert linguist is recruited by the military to determine whether they come in peace or are a threat...


Director: Denis Villeneuve
Writers: Eric Heisserer (screenplay), Ted Chiang (based on the story "Story of Your Life" written by)
Stars: Amy Adams, Jeremy Renner, Forest Whitaker
Genres: Drama | Mystery | Sci-Fi | Thriller
Country: USA
Language: English


Arrival 2016 HDCAM

Format                      : MKV
File size                   : 2.14 GiB
Duration                    : 2 h 19 min
Overall bit rate mode       : Variable
Overall bit rate            : 2 199 kb/s

Video
ID                          : 1
Format                      : AVC
Format/Info                 : Advanced Video Codec
Format settings, CABAC      : Yes
Format settings, ReFrames   : 4 frames
Codec ID                    : V_MPEG4/ISO/AVC
Duration                    : 2 h 19 min
Bit rate mode               : Variable
Bit rate                    : 2 005 kb/s
Maximum bit rate            : 62.5 Mb/s
Width                       : 720 pixels
Height                      : 320 pixels
Display aspect ratio        : 2.25:1
Frame rate mode             : Constant
Frame rate                  : 28.999 FPS
Original frame rate         : 29.000 FPS
Color space                 : YUV
Chroma subsampling          : 4:2:0
Bit depth                   : 8 bits
Scan type                   : Progressive
Bits/(Pixel*Frame)          : 0.300
Stream size                 : 1.95 GiB (91%)


Audio
ID                          : 2
Format                      : AC-3
Format/Info                 : Audio Coding 3
Mode extension              : CM (complete main)
Format settings, Endianness : Big
Codec ID                    : A_AC3
Duration                    : 2 h 19 min
Bit rate mode               : Constant
Bit rate                    : 192 kb/s
Channel(s)                  : 2 channels
Channel positions           : Front: L R
Sampling rate               : 44.1 kHz
Frame rate                  : 28.711 FPS (1536 spf)
Compression mode            : Lossy
Stream size                 : 191 MiB (9%)
Default                     : Yes
Forced                      : No

Share

& Comment

 

Copyright © 2015 DL4TOTS™ is a registered trademark.

Designed by Templateism. Hosted on Blogger Platform.