Hacksaw Ridge 2016 HDCAM Download From Kickass

Download Hacksaw Ridge 2016 HDCAM, Watch Online Hacksaw Ridge 2016 HDCAM, Download Hacksaw Ridge 2016 HDCAM Movie, Download Hacksaw Ridge 2016 HDCAM From Simpletorrent.xyz, Download Hacksaw Ridge 2016 HDCAM From DL4TOTS.XYZ, Download Hacksaw Ridge 2016 HDCAM From Torrent, Hacksaw Ridge 2016 HDCAM Download From Kickass
Size 1.95 GB






                                                                       Torrent 1

                                                                       Torrent 2

                                                                       Torrent 3

                                                                       Torrent 4

Introduction Of The Movie :-



WWII American Army Medic Desmond T. Doss, who served during the Battle of Okinawa, refuses to kill people, and becomes the first man in American history to win the Medal of Honor without firing a shot.

Director: Mel Gibson
Writers: Robert Schenkkan (screenplay), Andrew Knight (screenplay)
Stars: Andrew Garfield, Sam Worthington, Luke Bracey
Genres: Drama | History | War
Country: Australia | USA
Language: English


Hacksaw Ridge 2016 HDCAM

Format : MKV
File size : 1.93 GiB
Duration : 2 h 2 min
Overall bit rate mode : Variable
Overall bit rate : 2 252 kb/s


Video
Format : AVC
Format/Info : Advanced Video Codec
Format profile : [email protected]
Format settings, CABAC : Yes
Format settings, ReFrames : 4 frames
Codec ID : V_MPEG4/ISO/AVC
Duration : 2 h 2 min
Bit rate mode : Variable
Bit rate : 2 000 kb/s
Maximum bit rate : 62.5 Mb/s
Width : 720 pixels
Height : 320 pixels
Display aspect ratio : 2.25:1
Frame rate mode : Constant
Frame rate : 30.000 FPS
Color space : YUV
Chroma subsampling : 4:2:0
Bit depth : 8 bits
Scan type : Progressive
Bits/(Pixel*Frame) : 0.289
Stream size : 1.67 GiB

Audio
Format : AC-3
Format/Info : Audio Coding 3
Mode extension : CM (complete main)
Format settings, Endianness : Big
Codec ID : A_AC3
Duration : 2 h 2 min
Bit rate mode : Constant
Bit rate : 256 kb/s
Channel(s) : 2 channels
Channel positions : Front: L R
Sampling rate : 48.0 kHz
Frame rate : 31.250 FPS (1536 spf)
Compression mode : Lossy
Stream size : 225 MiB (11%)
Default : Yes
Forced : No

Share

& Comment

 

Copyright © 2015 DL4TOTS™ is a registered trademark.

Designed by Templateism. Hosted on Blogger Platform.